#TITLE:BREAKingDOWN 50's Style;
#SUBTITLE:;
#ARTIST:Be For U feat. G2R;
#TITLETRANSLIT:;
#SUBTITLETRANSLIT:;
#ARTISTTRANSLIT:;
#CREDIT:;
#BANNER:BD 50's Style - banner.png;
#BACKGROUND:BD 50's Style - bg.png;
#LYRICSPATH:;
#CDTITLE:;
#MUSIC:breakdown50.mp3;
#MUSICLENGTH:90.801;
#OFFSET:-0.360;
#SAMPLESTART:55.225;
#SAMPLELENGTH:12.000;
#SELECTABLE:YES;
#BPMS:0.000=190.800;
#STOPS:;
#BGCHANGES:;
#FIRSTBEAT:8.000;

#LASTBEAT:284.000;

#SONGFILENAME:Songs/ERICth MIX 2nd Style/Breakdown/breakdown50.sm;

#HASMUSIC:1;

#HASBANNER:1;


//---------------dance-single - MANIAC----------------
#NOTES:
     dance-single:
     MANIAC:
     hard:
     8:
     0.593,0.665,0.396,0.066,0.017,335.000,36.000,6.000,0.000,0.000:



0000
0000
0000
0000
,
0000
0000
0000
0000
,
1000
0001
1000
0001
,
0001
0100
0001
0001
,
0001
0100
0001
0000
0010
1000
0010
0000
,
1000
0100
1000
0000
0001
0010
0001
0000
,
0100
0010
0100
0010
,
1000
0100
1000
1000
,
1000
0100
1000
0000
0001
0010
0001
0000
,
1000
0001
1000
0000
1100
0000
0000
0000
,
1000
0100
0001
0010
0000
0100
0001
0010
,
0000
0100
0001
0010
0000
0000
0000
0000
,
0000
1000
0001
0100
0010
0100
0000
1000
,
0000
0001
1000
0001
0000
0000
0000
0000
,
0000
1001
0000
0000
0110
0000
0000
1001
,
0000
0000
0000
0000
0010
1000
0100
0010
,
0100
1000
0001
0100
,
1000
0100
0001
0100
,
0100
0100
0001
0000
0001
0001
1000
0000
,
1000
1000
0100
0010
0100
0000
0011
0000
,
1100
0000
0100
0000
1000
0100
0001
0000
,
0001
0100
0001
0000
0001
0100
1000
0000
,
0101
0000
0100
0000
0001
0100
1000
0000
,
1000
0100
1000
0000
1000
0100
0001
0000
,
0110
0000
0110
0000
0100
0010
0001
0000
,
0001
0010
1000
0000
0010
1000
0100
0000
,
1001
1001
1000
0001
,
0100
1000
0100
0001
0000
0001
0010
0000
,
1001
0000
1001
0000
1000
0001
1000
0000
,
0001
0010
0001
0010
0100
0000
1000
0000
,
0100
0010
0100
0001
0100
1000
0100
0000
,
0100
0001
0100
0001
0000
1000
1000
0000
,
0100
0000
0001
0000
0100
0001
0001
0000
,
0010
1000
0010
0000
0010
1000
0010
1000
,
0001
0010
0001
0010
0001
0000
0001
1000
,
0000
1000
0010
1000
0000
1000
0100
1000
,
0100
1000
0001
0100
0000
0000
0001
0100
,
2000
0000
0000
0000
0000
0000
0000
3000
,
1100
0011
0110
0101
,
1100
0000
0110
0110
0000
0000
0000
0000
,
0001
1000
0001
1000
0000
1000
0001
1000
,
0001
0000
0000
0000
,
0000
1000
0100
0001
0010
0001
0100
1000
,
0000
1000
1000
1000
1000
0000
1100
0000
,
0101
0000
0000
0000
0101
0000
0000
0000
0000
0000
0000
0000
,
0010
0100
0010
0100
0001
0010
0100
0010
,
0100
1000
1000
0000
1000
0000
0011
0000
,
1000
1000
0001
1000
,
0001
0001
1000
0001
,
1000
0100
0001
0100
,
1000
0100
0010
0001
1000
0100
0010
0001
,
0100
0001
1000
0010
0100
0001
1000
0010
,
1000
0000
0000
0000
1000
0000
0000
0000
0000
0000
0000
0000
,
1001
0100
0010
0100
,
0010
0100
0010
0000
0110
0000
1000
0000
,
0001
0000
0100
0001
0100
0001
0101
0000
,
0011
0000
0000
0000
1100
0000
0000
0000
0000
0000
0000
0000
,
1000
0000
0001
0000
1000
0001
1000
0000
,
1001
0000
0000
0001
2002
0000
3003
0000
,
0000
1000
0100
0001
0100
0000
0000
0000
,
0010
1000
0100
1000
0000
1000
0100
1000
,
0000
1000
0100
1000
0000
0000
0000
0000
,
0000
1000
0010
0001
0010
0100
0010
1000
,
0000
1000
0010
0001
0000
0000
0000
0000
,
0000
1100
0000
0000
0011
0000
0000
0110
,
0000
1000
0010
0001
,
0010
0000
1000
0000
1000
0010
1000
0000
,
0010
1000
0100
1000
0010
0000
0010
0000
,
1000
0100
1100
0000
0001
0100
0101
0000
,
1000
0001
1000
0100
0002
0000
0200
0003
,
2000
0300
0000
0000
0000
0000
0000
0000
,
3001
0000
0000
0000;

//---------------dance-single - ANOTHER----------------
#NOTES:
     dance-single:
     ANOTHER:
     medium:
     5:
     0.475,0.586,0.110,0.022,0.000,290.000,10.000,2.000,0.000,0.000:



0000
0000
0000
0000
,
0000
0000
0000
0000
,
1000
0000
0001
0000
,
1000
0000
0001
0000
,
1000
0100
1000
0000
1000
0100
1000
0000
,
1000
0100
1000
0000
1000
0000
0000
0000
,
0010
0000
0100
0000
,
0001
0000
1000
0000
,
0001
0010
0001
0000
0001
0010
0001
0000
,
0001
0010
0001
0000
0001
0010
0001
0000
,
0001
1000
0100
0010
,
0001
1000
0100
0010
,
0100
0100
0010
0010
,
1000
0001
1000
0001
,
1000
0100
1000
0010
,
0100
0010
0100
0001
,
1000
0001
1000
0000
0001
1000
0001
0000
,
1000
0001
1000
0000
1001
0000
0000
0000
,
0010
0100
0010
0100
,
0010
0000
0100
0100
0100
0000
0010
0000
,
0100
1000
0001
1000
,
0100
0010
0001
0011
,
0100
1000
0001
0100
,
0001
0010
0100
0110
,
0001
1000
0010
1000
,
0001
1000
0100
1000
,
0001
0010
0001
0010
,
0010
0001
1000
0100
0000
0010
0001
0000
,
1100
0010
0001
1000
,
0010
0100
0010
0100
,
0001
1000
0010
0100
,
0001
0000
0010
0001
0000
0000
0100
0000
,
0010
1000
0001
1000
,
0010
0100
0001
1000
,
0010
1000
0010
1000
0010
1000
0100
1000
,
0001
1000
0001
1000
0001
0000
0000
0000
,
1001
0000
1001
0000
,
0100
1000
0010
1000
,
0001
0010
0001
0000
0001
0010
0001
0000
,
0001
0010
0001
0000
0001
0010
0001
0000
,
0001
1000
0100
0010
,
0001
1000
0100
0010
,
0001
0100
1000
0010
,
0000
0010
1000
0100
1000
0000
0100
0000
,
1000
0001
1000
0100
,
0010
0001
1000
0100
,
0100
1000
0001
0000
1000
0000
0100
0000
,
0010
1000
0010
0100
,
0110
0000
0000
0110
0000
0000
0001
0000
,
1000
0100
0010
0001
,
1000
0100
1000
0100
,
0010
0001
0010
0001
,
0010
1000
0001
0100
,
0010
1000
0100
0010
,
0100
1000
0010
0100
,
0001
0000
0100
0000
1000
0100
0000
0000
,
0001
0100
1000
0010
,
1000
0001
0010
0100
,
1000
0001
1000
0010
,
2000
0000
0000
0000
0000
0000
0000
3000
,
0001
1000
0010
0100
,
0001
0010
0100
1000
,
0001
0000
0010
0000
0100
0000
0010
0100
,
0010
0001
0010
0100
0010
0000
0001
0000
,
1000
0000
0010
0000
1000
0000
0100
1000
,
0100
0010
1000
0100
,
0010
0000
0001
0000
1000
0000
0010
0100
,
0001
1000
0100
0000
1000
0000
0010
0000
,
1000
0000
0100
0000
0010
0100
0010
0000
,
0001
0000
1000
0010
0100
0000
1001
0000
,
0120
0000
0000
0030
,
1000
0000
0000
0000;

//---------------dance-single - BASIC----------------
#NOTES:
     dance-single:
     BASIC:
     easy:
     2:
     0.363,0.469,0.132,0.033,0.000,216.000,12.000,3.000,0.000,0.000:



0000
0000
0000
0000
,
0000
0000
0000
0000
,
1000
0000
0001
0000
,
1000
0000
0001
0000
,
0010
0100
0010
0100
,
0001
1000
0100
0000
,
0010
0000
1000
0000
,
0001
0000
0010
0000
,
0001
0010
0100
1000
,
0101
0100
0010
0000
,
1000
0000
0001
0000
,
0100
0000
1000
0000
,
0001
0010
0100
1000
,
0010
0100
0001
0000
,
1000
0000
0001
0000
,
0010
0000
0001
0000
,
1000
0100
0010
0100
,
0001
1000
0010
0000
,
0001
1100
0001
0001
,
0001
0100
0010
0110
,
0110
0001
1000
0100
,
0010
0001
1000
0010
,
0100
0010
1000
0100
,
0001
0100
1000
0010
,
1000
0100
1000
0010
,
1000
0001
0010
0001
,
0100
0002
0013
0001
,
0011
0000
1100
0000
,
0010
1000
0001
0010
,
0100
0010
0001
0000
,
0001
1000
0010
0100
,
0001
1000
0100
0000
,
0010
1000
0001
0010
,
0100
0010
0001
1000
,
0100
0010
0100
0010
,
0001
1000
0100
0001
,
0100
1000
0010
0001
,
0010
1000
0002
1003
,
0011
0000
1100
0000
,
1010
0000
0101
0000
,
0010
1000
0001
0010
,
0100
0000
0010
0000
,
0001
1000
0100
0010
,
0001
0000
1000
1000
,
1000
0000
0001
0000
,
0100
0000
0010
0000
,
0001
1000
0100
0000
,
0001
0000
0010
0000
,
0010
0000
0100
0000
,
0010
0001
1000
0100
,
0010
0100
0010
0100
,
0001
1000
0001
1000
,
0011
0000
0011
0000
,
0100
1000
0010
0000
,
0100
0000
1000
0000
,
0001
0010
0100
0010
,
0001
0000
1000
0000
,
0010
0000
1000
0000
,
0001
0000
0100
0000
,
0010
1000
0001
0000
,
0001
1000
0100
1000
,
0001
0100
0001
1000
,
0100
1000
0001
0100
,
0001
1000
0010
0000
,
0100
0000
0001
0000
,
1000
0000
0010
0000
,
0010
0100
0010
0100
,
1000
0001
1000
0000
,
0001
0001
1000
1000
,
0010
0010
0100
0100
,
0200
0000
0000
0000
,
0310
0000
0000
0000;
